<?xml version="1.0" standalone="no"?>
<!DOCTYPE svg PUBLIC "-//W3C//DTD SVG 1.1//EN" "http://www.w3.org/Graphics/SVG/1.1/DTD/svg11.dtd" >
<svg xmlns="http://www.w3.org/2000/svg">
<metadata>Generated by IcoMoon</metadata>
<defs>
<font id="icomoon" horiz-adv-x="1024">
<font-face units-per-em="1024" ascent="960" descent="-64" />
<missing-glyph horiz-adv-x="1024" />
<glyph unicode="&#x20;" horiz-adv-x="512" d="" />
<glyph unicode="&#xe900;" glyph-name="caret-up" d="M479.753 683.814c18.557 15.905 45.934 15.905 64.492 0l462.451-396.389c20.778-17.805 23.182-49.085 5.378-69.863-17.811-20.778-49.093-23.182-69.869-5.371l-430.204 368.744-430.204-368.744c-20.778-17.811-52.057-15.406-69.866 5.371s-15.402 52.058 5.374 69.863l462.449 396.389z" />
<glyph unicode="&#xe901;" glyph-name="check" d="M1024 448c0 282.77-229.232 512-512 512-282.77 0-512-229.23-512-512 0-282.767 229.23-512 512-512 282.767 0 512 229.232 512 512zM718.351 603.153c14.996-14.996 14.996-39.31 0-54.305l-255.999-255.999c-14.996-14.996-39.306-14.996-54.305 0l-102.4 102.4c-14.996 14.996-14.996 39.306 0 54.302s39.31 14.996 54.306 0l75.247-75.244 228.848 228.845c14.996 14.996 39.306 14.996 54.302 0z" />
<glyph unicode="&#xe902;" glyph-name="close-o" d="M418.187 592.329c-13.95 13.95-36.567 13.95-50.517 0s-13.95-36.567 0-50.516l93.811-93.813-93.81-93.813c-13.95-13.946-13.95-36.564 0-50.514s36.567-13.95 50.516 0l93.813 93.808 93.808-93.808c13.95-13.95 36.568-13.95 50.519 0s13.95 36.568 0 50.519l-93.813 93.808 93.813 93.813c13.95 13.948 13.95 36.565 0 50.515s-36.568 13.95-50.519 0l-93.808-93.809-93.813 93.81zM512 960c-282.77 0-512-229.23-512-512s229.23-512 512-512c282.771 0 512 229.228 512 512 0 282.77-229.228 512-512 512zM71.442 448c0 243.313 197.244 440.558 440.558 440.558 243.312 0 440.558-197.244 440.558-440.558 0-243.312-197.246-440.558-440.558-440.558s-440.558 197.246-440.558 440.558z" />
<glyph unicode="&#xe903;" glyph-name="history" horiz-adv-x="1052" d="M162.543 811.971c199.302 199.023 523.288 196.906 723.811-3.616 200.609-200.61 202.64-524.786 3.358-724.069-199.279-199.282-523.458-197.249-724.067 3.358-118.881 118.882-167.973 281.066-146.892 434.863 2.954 21.548 22.818 36.623 44.368 33.671 21.55-2.955 36.625-22.818 33.671-44.369-17.854-130.25 23.696-267.609 124.551-368.465 170.377-170.377 444.678-171.353 612.671-3.358 167.995 167.995 167.019 442.294-3.358 612.672-170.288 170.289-444.399 171.351-612.415 3.616l39.265-0.197c21.751-0.11 39.294-17.831 39.185-39.582s-17.83-39.297-39.58-39.189l-133.675 0.672c-21.596 0.108-39.078 17.591-39.186 39.189l-0.672 133.673c-0.11 21.751 17.435 39.473 39.186 39.582s39.473-17.435 39.582-39.186l0.197-39.264zM525.994 697.44c21.751 0 39.385-17.633 39.385-39.385v-193.738l119.746-119.746c15.382-15.38 15.382-40.316 0-55.698-15.38-15.38-40.316-15.38-55.698 0l-142.817 142.817v226.365c0 21.751 17.633 39.385 39.385 39.385z" />
<glyph unicode="&#xe904;" glyph-name="home" horiz-adv-x="1052" d="M383.115 197.952c-19.728 0-35.721-15.993-35.721-35.721s15.993-35.721 35.721-35.721h285.768c19.728 0 35.721 15.993 35.721 35.721s-15.993 35.721-35.721 35.721h-285.768zM525.999 960c-33.727 0-64.368-9.66-97.612-25.826-32.133-15.627-69.257-38.667-115.624-67.444l-98.427-61.086c-43.875-27.229-79.007-49.033-106.086-69.771-28.041-21.475-49.578-43.344-65.135-71.766-15.525-28.364-22.516-58.541-25.868-94.214-3.248-34.568-3.248-76.842-3.247-129.856v-76.808c-0.001-90.678-0.001-162.256 7.273-218.218 7.461-57.408 23.14-103.756 58.566-140.401 35.589-36.81 80.877-53.258 136.942-61.056 54.337-7.554 123.734-7.554 211.194-7.554h196.047c87.46 0 156.861 0 211.198 7.554 56.064 7.798 101.353 24.246 136.943 61.056 35.425 36.645 51.101 82.993 58.563 140.401 7.275 55.962 7.275 127.542 7.275 218.218v76.808c0 53.013 0 95.288-3.248 129.856-3.353 35.673-10.341 65.85-25.869 94.214-15.555 28.422-37.093 50.291-65.136 71.766-27.078 20.737-62.208 42.54-106.083 69.77l-98.428 61.087c-46.367 28.778-83.492 51.818-115.624 67.444-33.244 16.166-63.885 25.826-97.612 25.826zM348.801 805.012c48.377 30.026 82.393 51.085 110.83 64.914 27.704 13.472 47.326 18.632 66.368 18.632s38.665-5.159 66.368-18.632c28.437-13.828 62.452-34.888 110.83-64.914l95.255-59.118c45.764-28.401 77.894-48.388 101.857-66.741 23.319-17.86 36.733-32.596 45.907-49.352 9.201-16.812 14.574-36.473 17.406-66.594 2.899-30.841 2.934-69.762 2.934-124.922v-72.442c0-93.875-0.070-160.801-6.678-211.626-6.487-49.918-18.708-78.879-39.083-99.952-20.21-20.906-47.727-33.318-95.417-39.951-48.847-6.791-113.272-6.874-204.124-6.874h-190.512c-90.852 0-155.277 0.083-204.123 6.874-47.693 6.633-75.208 19.045-95.42 39.951-20.374 21.074-32.595 50.035-39.083 99.952-6.606 50.825-6.678 117.752-6.678 211.626v72.442c0 55.16 0.036 94.081 2.935 124.922 2.83 30.119 8.204 49.78 17.407 66.594 9.171 16.755 22.587 31.491 45.905 49.352 23.965 18.353 56.095 38.34 101.857 66.741l95.257 59.118z" />
<glyph unicode="&#xe905;" glyph-name="search" d="M488.188 888.559c-230.161 0-416.744-186.583-416.744-416.744s186.583-416.744 416.744-416.744c230.163 0 416.744 186.583 416.744 416.744s-186.583 416.744-416.744 416.744zM0.001 471.814c0 269.619 218.569 488.186 488.186 488.186s488.186-218.569 488.186-488.186c0-121.951-44.718-233.458-118.646-319.022l155.81-155.815c13.95-13.95 13.95-36.564 0-50.514s-36.564-13.95-50.514 0l-155.815 155.81c-85.564-73.928-197.070-118.646-319.022-118.646-269.619 0-488.186 218.57-488.186 488.186z" />
<glyph unicode="&#xe906;" glyph-name="r-arrow-down" d="M0.001 447.999c0-282.773 229.23-511.997 512.001-511.997 282.766 0 511.999 229.225 511.999 511.997 0 282.769-229.232 511.999-511.999 511.999-282.771 0-512.001-229.23-512.001-511.999zM692.754 423.951c14.999-14.996 14.999-39.31 0-54.306l-153.6-153.6c-14.996-14.999-39.31-14.999-54.305 0l-153.6 153.6c-14.996 14.996-14.996 39.31 0 54.306s39.31 14.996 54.305 0l88.048-88.046v316.894c0 21.208 17.192 38.4 38.4 38.4s38.4-17.192 38.4-38.4v-316.894l88.048 88.046c14.996 14.996 39.306 14.996 54.305 0z" />
<glyph unicode="&#xe907;" glyph-name="cart-o" d="M95.945 862.18c-16.673 5.862-34.941-2.902-40.802-19.575s2.902-34.94 19.575-40.802l11.145-3.918c28.485-10.015 47.205-16.652 60.98-23.41 12.937-6.348 18.641-11.486 22.398-16.985 3.851-5.635 6.825-13.376 8.503-28.879 1.756-16.222 1.799-37.352 1.799-68.922v-116.123c0-61.973 0.582-106.662 6.429-140.804 6.243-36.45 18.708-62.549 42.013-87.13 25.338-26.726 57.458-38.362 95.697-43.78 36.618-5.193 83.118-5.193 140.535-5.193h230.643c31.646 0 58.274 0 79.817 2.637 22.861 2.795 43.708 8.909 61.905 23.74s28.395 34.010 35.746 55.834c6.933 20.57 12.305 46.647 18.692 77.641l21.756 105.553 0.448 2.233c7.023 35.195 12.937 64.801 14.404 88.614 1.545 25.011-1.301 49.673-17.596 70.852-10.022 13.031-24.119 20.408-36.941 24.913-13.077 4.595-27.861 7.253-42.786 8.921-29.312 3.277-64.926 3.276-99.853 3.276h-488.625c-0.14 1.568-0.292 3.11-0.456 4.626-2.292 21.179-7.259 40.495-19.29 58.101-12.125 17.743-28.247 29.107-47.047 38.332-17.583 8.627-39.924 16.481-66.229 25.728l-12.86 4.521zM243.543 666.871h485.58c36.54 0 68.698-0.043 94.076-2.88 12.608-1.41 22.046-3.368 28.681-5.698 5.419-1.905 7.253-3.46 7.518-3.685-0.004 0.005 0.013-0.009 0 0 2.615-3.473 5.466-9.775 4.356-27.757-1.169-18.925-6.14-44.195-13.717-82.165l-0.021-0.095-21.282-103.26c-6.882-33.399-11.516-55.603-17.050-72.026-5.257-15.586-10.189-22.306-15.531-26.658s-12.919-7.829-29.248-9.83c-17.199-2.103-39.881-2.159-73.984-2.159h-226.257c-60.448 0-102.392 0.077-133.994 4.557-30.499 4.326-46.611 12.186-58.239 24.448-13.66 14.409-21.028 28.518-25.376 53.901-4.743 27.691-5.51 66.47-5.51 130.001v123.307zM319.998 31.991c-53.019 0-96 42.982-96 96s42.981 96 96 96c53.019 0 96-42.982 96-96s-42.981-96-96-96zM287.998 127.991c0-17.673 14.327-32 32-32s32 14.327 32 32c0 17.673-14.327 32-32 32s-32-14.327-32-32zM704 31.987c-53.022 0-96 42.982-96 96 0 53.022 42.978 96 96 96 53.018 0 96-42.978 96-96 0-53.018-42.982-96-96-96zM672 127.987c0-17.673 14.323-32 32-32 17.673 0 32 14.327 32 32s-14.327 32-32 32c-17.677 0-32-14.327-32-32z" />
<glyph unicode="&#xe908;" glyph-name="cart" d="M88.924 842.605c5.862 16.673 24.13 25.437 40.803 19.575l12.86-4.521c26.305-9.248 48.647-17.101 66.229-25.728 18.8-9.225 34.922-20.588 47.047-38.332 12.031-17.606 16.998-36.922 19.291-58.101 1.026-9.481 1.568-19.974 1.853-31.508h453.895c71.893 0 136.61 0 155.55-24.623 18.944-24.622 11.537-61.722-3.273-135.922l-21.325-103.454c-13.444-65.233-20.169-97.847-43.708-117.030s-56.841-19.183-123.443-19.183h-226.257c-118.994 0-178.49 0-215.457 38.989s-39.665 80.41-39.665 205.916v111.005c0 31.571-0.044 52.7-1.8 68.922-1.678 15.503-4.652 23.244-8.503 28.879-3.757 5.498-9.46 10.637-22.398 16.985-13.775 6.759-32.495 13.396-60.979 23.41l-11.145 3.918c-16.673 5.862-25.437 24.13-19.575 40.802zM320 191.991c35.346 0 64-28.655 64-64 0-35.349-28.654-64-64-64s-64 28.651-64 64c0 35.345 28.654 64 64 64zM704 191.987c35.345 0 64-28.655 64-64s-28.655-64-64-64c-35.345 0-64 28.655-64 64s28.655 64 64 64z" />
<glyph unicode="&#xe909;" glyph-name="info-o" d="M512 202.667c17.673 0 32 14.327 32 32v256c0 17.673-14.327 32-32 32s-32-14.327-32-32v-256c0-17.673 14.327-32 32-32zM512 661.333c23.565 0 42.667-19.103 42.667-42.667s-19.102-42.667-42.667-42.667c-23.565 0-42.667 19.103-42.667 42.667s19.102 42.667 42.667 42.667zM53.333 448c0 253.315 205.352 458.667 458.667 458.667s458.667-205.352 458.667-458.667c0-253.316-205.35-458.667-458.667-458.667-253.315 0-458.667 205.35-458.667 458.667zM512 842.667c-217.968 0-394.667-176.698-394.667-394.667 0-217.967 176.698-394.667 394.667-394.667 217.967 0 394.667 176.7 394.667 394.667 0 217.968-176.7 394.667-394.667 394.667z" />
<glyph unicode="&#xe90a;" glyph-name="info" d="M512 874.667c-234.667 0-426.667-192-426.667-426.667s192-426.667 426.667-426.667 426.667 192 426.667 426.667-192 426.667-426.667 426.667zM546.133 234.667c0-21.333-17.067-34.133-34.133-34.133s-34.133 12.8-34.133 34.133v256c0 21.333 12.8 34.133 34.133 34.133s34.133-17.067 34.133-34.133v-256zM512 576c-25.6 0-42.667 17.067-42.667 42.667s17.067 42.667 42.667 42.667 42.667-17.067 42.667-42.667-17.067-42.667-42.667-42.667z" />
<glyph unicode="&#xe90b;" glyph-name="user-o" d="M352 576c0 88.366 71.634 160 160 160s160-71.634 160-160c0-88.367-71.633-160-160-160s-160 71.633-160 160zM512 672c-53.018 0-96-42.981-96-96s42.982-96 96-96 96 42.982 96 96c0 53.019-42.982 96-96 96zM53.333 448c0 253.315 205.352 458.667 458.667 458.667s458.667-205.352 458.667-458.667c0-253.316-205.35-458.667-458.667-458.667-253.315 0-458.667 205.35-458.667 458.667zM512 842.667c-217.968 0-394.667-176.698-394.667-394.667 0-108.612 43.873-206.976 114.863-278.336 7.697 41.519 22.82 80.666 53.174 112.145 45.404 47.087 118.007 70.191 226.63 70.191 108.617 0 181.222-23.104 226.624-70.191 30.357-31.479 45.478-70.63 53.175-112.149 70.993 71.36 114.867 169.728 114.867 278.34 0 217.968-176.7 394.667-394.667 394.667zM733.598 121.37c-4.348 51.708-15.578 89.604-41.041 116.015-27.712 28.736-79.057 50.615-180.557 50.615-101.504 0-152.849-21.879-180.559-50.615-25.467-26.411-36.695-64.303-41.042-116.011 63.173-42.944 139.455-68.041 221.601-68.041 82.142 0 158.426 25.097 221.598 68.036z" />
<glyph unicode="&#xe90c;" glyph-name="user" d="M512 874.667c-234.667 0-426.667-192-426.667-426.667s192-426.667 426.667-426.667 426.667 192 426.667 426.667-192 426.667-426.667 426.667zM512 704c72.533 0 128-55.467 128-128s-55.467-128-128-128-128 55.467-128 128c0 72.533 55.467 128 128 128zM716.8 149.333c-59.733-38.4-128-64-204.8-64s-145.067 21.333-204.8 64c-25.6 17.067-38.4 51.2-21.333 76.8 29.867 59.733 93.867 93.867 226.133 93.867s196.267-34.133 226.133-93.867c17.067-25.6 4.267-59.733-21.333-76.8z" />
<glyph unicode="&#xe90d;" glyph-name="add-o" d="M544 576c0 17.673-14.327 32-32 32s-32-14.327-32-32v-96h-96c-17.673 0-32-14.327-32-32s14.327-32 32-32h96v-96c0-17.673 14.327-32 32-32s32 14.327 32 32v96h96c17.673 0 32 14.327 32 32s-14.327 32-32 32h-96v96zM514.449 906.667h-4.898c-98.49 0-175.676 0.001-235.899-8.096-61.642-8.288-110.283-25.582-148.462-63.761s-55.473-86.819-63.761-148.462c-8.097-60.223-8.096-137.408-8.096-235.899v-4.898c0-98.492-0.001-175.676 8.096-235.9 8.288-61.641 25.582-110.285 63.761-148.463s86.819-55.471 148.462-63.761c60.223-8.094 137.409-8.094 235.899-8.094h4.898c98.492 0 175.676 0 235.9 8.094 61.641 8.29 110.285 25.583 148.463 63.761s55.471 86.822 63.761 148.463c8.094 60.224 8.094 137.408 8.094 235.9v4.898c0 98.49 0 175.676-8.094 235.899-8.29 61.642-25.583 110.283-63.761 148.462s-86.822 55.473-148.463 63.761c-60.224 8.097-137.408 8.096-235.9 8.096zM170.445 789.555c24.305 24.305 57.189 38.253 111.735 45.586 55.466 7.457 128.349 7.525 229.821 7.525 101.47 0 174.353-0.068 229.82-7.525 54.545-7.334 87.428-21.281 111.735-45.586s38.255-57.189 45.585-111.735c7.458-55.466 7.526-128.349 7.526-229.821 0-101.47-0.068-174.353-7.526-229.82-7.33-54.545-21.278-87.428-45.585-111.735s-57.19-38.255-111.735-45.585c-55.467-7.458-128.35-7.526-229.82-7.526-101.471 0-174.355 0.068-229.821 7.526-54.545 7.33-87.43 21.278-111.735 45.585s-38.253 57.19-45.586 111.735c-7.457 55.467-7.525 128.35-7.525 229.82s0.068 174.355 7.525 229.821c7.334 54.545 21.281 87.43 45.586 111.735z" />
<glyph unicode="&#xe90e;" glyph-name="add" d="M512 21.333c201.131 0 301.7 0 364.181 62.485 62.485 62.481 62.485 163.051 62.485 364.181 0 201.133 0 301.699-62.485 364.183-62.481 62.484-163.051 62.484-364.181 62.484-201.133 0-301.699 0-364.183-62.484s-62.484-163.050-62.484-364.183c0-201.131 0-301.7 62.484-364.181 62.484-62.485 163.050-62.485 364.183-62.485zM512 608c17.673 0 32-14.327 32-32v-96h96c17.673 0 32-14.327 32-32s-14.327-32-32-32h-96v-96c0-17.673-14.327-32-32-32s-32 14.327-32 32v96h-96c-17.673 0-32 14.327-32 32s14.327 32 32 32h96v96c0 17.673 14.327 32 32 32z" />
<glyph unicode="&#xe90f;" glyph-name="minus-o" d="M640 416c17.673 0 32 14.327 32 32s-14.327 32-32 32h-256c-17.673 0-32-14.327-32-32s14.327-32 32-32h256zM514.449 906.667h-4.898c-98.49 0-175.676 0.001-235.899-8.096-61.642-8.288-110.283-25.582-148.462-63.761s-55.473-86.819-63.761-148.462c-8.097-60.223-8.096-137.408-8.096-235.899v-4.898c0-98.492-0.001-175.676 8.096-235.9 8.288-61.641 25.582-110.285 63.761-148.463s86.819-55.471 148.462-63.761c60.223-8.094 137.409-8.094 235.899-8.094h4.898c98.492 0 175.676 0 235.9 8.094 61.641 8.29 110.285 25.583 148.463 63.761s55.471 86.822 63.761 148.463c8.094 60.224 8.094 137.408 8.094 235.9v4.898c0 98.49 0 175.676-8.094 235.899-8.29 61.642-25.583 110.283-63.761 148.462s-86.822 55.473-148.463 63.761c-60.224 8.097-137.408 8.096-235.9 8.096zM170.445 789.555c24.305 24.305 57.189 38.253 111.735 45.586 55.466 7.457 128.349 7.525 229.821 7.525 101.47 0 174.353-0.068 229.82-7.525 54.545-7.334 87.428-21.281 111.735-45.586s38.255-57.189 45.585-111.735c7.458-55.466 7.526-128.349 7.526-229.821 0-101.47-0.068-174.353-7.526-229.82-7.33-54.545-21.278-87.428-45.585-111.735s-57.19-38.255-111.735-45.585c-55.467-7.458-128.35-7.526-229.82-7.526-101.471 0-174.355 0.068-229.821 7.526-54.545 7.33-87.43 21.278-111.735 45.585s-38.253 57.19-45.586 111.735c-7.457 55.467-7.525 128.35-7.525 229.82s0.068 174.355 7.525 229.821c7.334 54.545 21.281 87.43 45.586 111.735z" />
<glyph unicode="&#xe910;" glyph-name="minus" d="M512 21.333c201.131 0 301.7 0 364.181 62.485 62.485 62.481 62.485 163.051 62.485 364.181 0 201.133 0 301.699-62.485 364.183-62.481 62.484-163.051 62.484-364.181 62.484-201.133 0-301.699 0-364.183-62.484s-62.484-163.050-62.484-364.183c0-201.131 0-301.7 62.484-364.181 62.484-62.485 163.050-62.485 364.183-62.485zM672 448c0-17.673-14.327-32-32-32h-256c-17.673 0-32 14.327-32 32s14.327 32 32 32h256c17.673 0 32-14.327 32-32z" />
<glyph unicode="&#xe911;" glyph-name="arrow-right-up" d="M384 672c-17.673 0-32 14.327-32 32s14.327 32 32 32h384c17.673 0 32-14.327 32-32v-384c0-17.673-14.327-32-32-32s-32 14.327-32 32v306.745l-457.373-457.371c-12.497-12.497-32.758-12.497-45.255 0s-12.497 32.755 0 45.252l457.371 457.374h-306.743z" />
<glyph unicode="&#xe912;" glyph-name="google-4" d="M512 541.867v-198.4h275.2c-12.8-64-49.067-117.333-102.4-153.6l166.4-128c96 87.467 151.467 217.6 151.467 375.467 0 36.267-4.267 70.4-8.533 104.533h-482.133z" />
<glyph unicode="&#xe913;" glyph-name="google-3" d="M224 349.867l-38.4-27.733-132.267-102.4c85.333-168.533 258.133-283.733 458.667-283.733 138.667 0 253.867 44.8 339.2 123.733l-166.4 128c-44.8-29.867-104.533-49.067-172.8-49.067-132.267 0-245.333 89.6-288 211.2v0z" />
<glyph unicode="&#xe914;" glyph-name="google-2" d="M55.467 678.4c-36.267-70.4-55.467-147.2-55.467-230.4s19.2-160 55.467-230.4c0 0 170.667 132.267 170.667 132.267-10.667 29.867-17.067 64-17.067 98.133s6.4 66.133 17.067 98.133l-170.667 132.267z" />
<glyph unicode="&#xe915;" glyph-name="google-1" d="M512 755.2c74.667 0 142.933-25.6 196.267-76.8l147.2 147.2c-89.6 83.2-204.8 134.4-343.467 134.4-200.533 0-373.333-115.2-456.533-281.6l170.667-132.267c40.533 119.467 153.6 209.067 285.867 209.067z" />
<glyph unicode="&#xe916;" glyph-name="facebook" d="M1024 446.933c0 283.733-228.267 512-512 512s-512-230.4-512-512c0-256 187.733-467.2 433.067-505.6v356.267h-130.133v147.2h130.133v113.067c0 128 76.8 198.4 194.133 198.4 55.467 0 115.2-10.667 115.2-10.667v-125.867h-64c-64 0-83.2-40.533-83.2-81.067v-96h142.933l-23.467-147.2h-119.467v-358.4c241.067 40.533 428.8 253.867 428.8 509.867z" />
<glyph unicode="&#xe917;" glyph-name="apple" d="M925.191 161.993c-15.486-35.774-33.815-68.706-55.053-98.982-28.949-41.276-52.653-69.845-70.921-85.711-28.316-26.042-58.656-39.377-91.145-40.137-23.324 0-51.452 6.637-84.194 20.1-32.849 13.399-63.036 20.036-90.639 20.036-28.949 0-59.998-6.637-93.207-20.036-33.259-13.463-60.053-20.48-80.54-21.175-31.155-1.327-62.208 12.39-93.205 41.212-19.785 17.257-44.529 46.837-74.175 88.745-31.806 44.751-57.955 96.644-78.441 155.808-21.939 63.902-32.938 125.783-32.938 185.692 0 68.625 14.829 127.812 44.53 177.412 23.343 39.84 54.397 71.266 93.264 94.338 38.865 23.070 80.862 34.827 126.086 35.58 24.745 0 57.197-7.654 97.523-22.699 40.213-15.093 66.033-22.748 77.353-22.748 8.465 0 37.148 8.949 85.775 26.795 45.982 16.546 84.791 23.398 116.587 20.7 86.153-6.953 150.876-40.915 193.922-102.099-77.052-46.686-115.166-112.075-114.405-195.957 0.695-65.34 24.397-119.71 70.982-162.882 21.111-20.036 44.687-35.522 70.918-46.519-5.69-16.497-11.693-32.301-18.078-47.471zM727.604 939.514c0-51.212-18.709-99.028-56.002-143.286-45.005-52.615-99.439-83.017-158.468-78.219-0.753 6.142-1.188 12.608-1.188 19.405 0 49.162 21.402 101.777 59.409 144.796 18.974 21.782 43.108 39.892 72.373 54.34 29.201 14.232 56.823 22.103 82.801 23.45 0.759-6.846 1.075-13.693 1.075-20.485v-0.001z" />
<glyph unicode="&#xe918;" glyph-name="instagram" d="M512.3 867.782c136.827 0 153.031-0.6 206.842-3.001 50.009-2.2 77.013-10.602 95.018-17.603 23.804-9.202 41.009-20.404 58.811-38.208 18.005-18.004 29.007-35.007 38.21-58.812 7-18.003 15.401-45.208 17.603-95.019 2.4-54.010 3-70.213 3-206.842 0-136.827-0.599-153.028-3-206.84-2.202-50.011-10.603-77.016-17.603-95.018-9.203-23.807-20.405-41.009-38.21-58.813-18.003-18.003-35.006-29.007-58.811-38.207-18.005-7-45.21-15.404-95.018-17.603-54.012-2.4-70.216-3-206.842-3-136.827 0-153.031 0.599-206.84 3-50.011 2.199-77.016 10.603-95.020 17.603-23.805 9.201-41.008 20.403-58.812 38.207-18.004 18.005-29.006 35.006-38.208 58.813-7.001 18.003-15.403 45.208-17.603 95.018-2.4 54.010-3.001 70.213-3.001 206.84 0 136.827 0.6 153.031 3.001 206.842 2.2 50.011 10.602 77.016 17.603 95.019 9.202 23.805 20.404 41.008 38.208 58.812 18.004 18.004 35.007 29.006 58.812 38.208 18.004 7.001 45.209 15.403 95.020 17.603 53.809 2.4 70.013 3.001 206.84 3.001zM512.3 960c-139.026 0-156.43-0.6-211.041-3.001-54.411-2.4-91.819-11.202-124.226-23.805-33.807-13.203-62.412-30.606-90.818-59.212-28.606-28.406-46.009-57.011-59.212-90.618-12.602-32.606-21.404-69.814-23.805-124.225-2.4-54.81-3.001-72.215-3.001-211.242s0.6-156.43 3.001-211.041c2.4-54.411 11.202-91.82 23.805-124.226 13.203-33.808 30.606-62.412 59.212-90.819 28.406-28.405 57.011-46.008 90.618-59.011 32.606-12.601 69.814-21.403 124.225-23.804 54.612-2.4 72.014-3 211.041-3 139.029 0 156.432 0.599 211.044 3 54.411 2.4 91.817 11.202 124.223 23.804 33.607 13.004 62.214 30.607 90.619 59.011 28.405 28.407 46.010 57.012 59.011 90.619 12.604 32.605 21.406 69.815 23.807 124.226 2.4 54.612 3 72.014 3 211.041s-0.599 156.432-3 211.041c-2.4 54.411-11.202 91.819-23.807 124.226-12.601 34.007-30.005 62.612-58.61 91.018-28.407 28.406-57.012 46.009-90.619 59.012-32.605 12.602-69.815 21.404-124.226 23.805-54.81 2.601-72.215 3.201-211.242 3.201zM512.3 710.95c-145.228 0-263.051-117.824-263.051-263.051s117.824-263.051 263.051-263.051c145.228 0 263.051 117.824 263.051 263.051s-117.824 263.051-263.051 263.051zM512.3 277.264c-94.218 0-170.635 76.416-170.635 170.635s76.416 170.635 170.635 170.635c94.218 0 170.635-76.416 170.635-170.635s-76.416-170.635-170.635-170.635zM847.165 721.344c0-34.006-27.604-61.411-61.411-61.411-34.006 0-61.411 27.606-61.411 61.411 0 34.008 27.606 61.413 61.411 61.413 33.808 0 61.411-27.605 61.411-61.413z" />
<glyph unicode="&#xe919;" glyph-name="linkedin" d="M948.41 960h-872.818c-20.048 0-39.275-7.964-53.451-22.14s-22.14-33.403-22.14-53.451v-872.818c0-20.047 7.964-39.275 22.14-53.451s33.403-22.14 53.451-22.14h872.818c20.047 0 39.275 7.964 53.451 22.14s22.14 33.404 22.14 53.451v872.818c0 20.048-7.964 39.275-22.14 53.451s-33.404 22.14-53.451 22.14zM305.21 87.68h-153.956v489.030h153.956v-489.030zM228.124 644.48c-17.463 0.098-34.506 5.367-48.978 15.142s-25.724 23.618-32.335 39.782c-6.612 16.164-8.287 33.924-4.815 51.040s11.937 32.818 24.325 45.127c12.388 12.309 28.145 20.673 45.283 24.035s34.886 1.573 51.007-5.142c16.122-6.715 29.892-18.056 39.573-32.59 9.683-14.534 14.842-31.611 14.829-49.075 0.164-11.693-2.027-23.298-6.443-34.125s-10.965-20.655-19.262-28.896c-8.294-8.243-18.163-14.731-29.020-19.076-10.854-4.346-22.475-6.462-34.165-6.223zM872.676 87.253h-153.886v267.164c0 78.793-33.493 103.113-76.727 103.113-45.653 0-90.453-34.419-90.453-105.103v-265.173h-153.956v489.103h148.053v-67.77h1.99c14.863 30.080 66.916 81.493 146.347 81.493 85.903 0 178.703-50.987 178.703-200.32l-0.070-302.507z" />
<glyph unicode="&#xe91a;" glyph-name="twitter-x" d="M806.46 910.803h157.019l-343.043-392.075 403.565-533.529h-315.985l-247.491 323.582-283.187-323.582h-157.115l366.92 419.371-387.141 506.234h324.009l223.712-295.767 258.743 295.767zM751.349 79.182h87.008l-561.629 742.571h-93.368l567.989-742.571z" />
<glyph unicode="&#xe91b;" glyph-name="youtube" d="M1002.667 695.467c-6.4 21.333-17.067 42.667-34.133 57.6-14.933 14.933-36.267 27.733-57.6 34.133-81.067 21.333-401.067 21.333-401.067 21.333s-320 0-401.067-21.333c-21.333-6.4-40.533-17.067-57.6-34.133s-27.733-36.267-34.133-57.6c-17.067-78.933-17.067-247.467-17.067-247.467s0-168.533 21.333-247.467c6.4-21.333 17.067-42.667 34.133-57.6 14.933-14.933 36.267-27.733 57.6-34.133 81.067-21.333 401.067-21.333 401.067-21.333s320 0 401.067 21.333c21.333 6.4 40.533 17.067 57.6 34.133 14.933 14.933 27.733 36.267 34.133 57.6 21.333 81.067 21.333 247.467 21.333 247.467s-4.267 168.533-25.6 247.467zM407.467 296.533v302.933l268.8-151.467-268.8-151.467z" />
<glyph unicode="&#xe91c;" glyph-name="whatsapp" d="M2.431-64l71.979 262.955c-44.416 76.971-67.755 164.224-67.712 253.696 0.128 279.723 227.755 507.349 507.435 507.349 135.723-0.043 263.125-52.907 358.955-148.821 95.787-95.915 148.523-223.403 148.48-358.997-0.128-279.765-227.755-507.392-507.435-507.392-84.907 0.043-168.576 21.333-242.688 61.781l-269.013-70.571zM283.904 98.432c71.509-42.453 139.776-67.883 230.059-67.925 232.448 0 421.803 189.184 421.931 421.76 0.085 233.045-188.373 421.973-421.589 422.059-232.619 0-421.845-189.184-421.931-421.717-0.043-94.933 27.776-166.016 74.496-240.384l-42.624-155.648 159.659 41.856zM769.749 331.563c-3.157 5.291-11.605 8.448-24.32 14.805-12.672 6.357-75.008 37.035-86.656 41.259-11.605 4.224-20.053 6.357-28.544-6.357-8.448-12.672-32.768-41.259-40.149-49.707s-14.805-9.515-27.477-3.157c-12.672 6.357-53.547 19.712-101.973 62.933-37.675 33.621-63.147 75.136-70.528 87.851-7.381 12.672-0.768 19.541 5.547 25.856 5.717 5.675 12.672 14.805 19.029 22.229 6.443 7.339 8.533 12.629 12.8 21.12 4.224 8.448 2.133 15.872-1.067 22.229-3.2 6.315-28.544 68.736-39.083 94.123-10.325 24.704-20.779 21.376-28.544 21.76l-24.32 0.427c-8.448 0-22.187-3.157-33.792-15.872s-44.373-43.349-44.373-105.771c0-62.421 45.44-122.709 51.755-131.157 6.357-8.448 89.387-136.533 216.576-191.445 30.251-13.056 53.888-20.864 72.277-26.709 30.379-9.643 58.027-8.277 79.872-5.035 24.363 3.627 75.008 30.677 85.589 60.288 10.581 29.653 10.581 55.040 7.381 60.331z" />
<glyph unicode="&#xe91d;" glyph-name="card-o" d="M414.058 864.744h195.885c87.531 0.001 156.857 0.001 211.115-7.294 55.838-7.507 101.038-23.326 136.683-58.969 35.639-35.643 51.457-80.84 58.969-136.679 4.305-32.047 6.073-69.352 6.791-112.559 0.328-1.947 0.5-3.947 0.5-5.988 0-1.681-0.114-3.329-0.338-4.948 0.338-26.944 0.338-56.101 0.338-87.621v-5.373c0-87.531 0-156.857-7.292-211.115-7.511-55.838-23.328-101.038-58.969-136.683-35.645-35.639-80.843-51.457-136.683-58.969-54.258-7.292-123.584-7.292-211.115-7.292h-195.885c-87.528 0-156.857 0-211.116 7.292-55.84 7.511-101.037 23.328-136.679 58.969-35.643 35.645-51.46 80.843-58.969 136.683-7.295 54.258-7.295 123.584-7.294 211.115v5.373c0 31.52 0 60.678 0.34 87.621-0.224 1.62-0.34 3.272-0.34 4.948 0 2.041 0.171 4.040 0.5 5.988 0.721 43.207 2.485 80.512 6.794 112.56 7.507 55.84 23.326 101.037 58.969 136.679s80.84 51.46 136.679 58.969c54.258 7.295 123.587 7.295 211.115 7.294zM71.538 507.534c-0.090-18.499-0.095-38.297-0.095-59.534 0-90.817 0.076-155.338 6.656-204.286 6.442-47.914 18.524-75.524 38.68-95.68s47.764-32.239 95.682-38.679c48.945-6.583 113.465-6.659 204.283-6.659h190.512c90.817 0 155.338 0.076 204.286 6.659 47.914 6.44 75.524 18.522 95.68 38.679s32.239 47.766 38.679 95.68c6.583 48.948 6.659 113.469 6.659 204.286 0 21.237-0.004 41.037-0.095 59.534h-880.926zM951.316 578.976c-0.929 27.945-2.562 52.089-5.415 73.306-6.44 47.918-18.522 75.525-38.679 95.682s-47.766 32.238-95.68 38.68c-48.948 6.58-113.469 6.656-204.286 6.656h-190.512c-90.818 0-155.338-0.076-204.283-6.656-47.918-6.442-75.525-18.524-95.682-38.68s-32.238-47.764-38.68-95.682c-2.852-21.218-4.483-45.362-5.415-73.306h878.63zM190.513 257.488c0-19.728 15.993-35.721 35.721-35.721h190.512c19.728 0 35.721 15.993 35.721 35.721s-15.993 35.721-35.721 35.721h-190.512c-19.728 0-35.721-15.993-35.721-35.721zM500.094 257.488c0-19.728 15.993-35.721 35.721-35.721h71.442c19.728 0 35.721 15.993 35.721 35.721s-15.993 35.721-35.721 35.721h-71.442c-19.728 0-35.721-15.993-35.721-35.721z" />
<glyph unicode="&#xe91e;" glyph-name="mic" d="M480 256c88.366 0 160 71.634 160 160v384c0 88.366-71.634 160-160 160s-160-71.634-160-160v-384c0-88.366 71.636-160 160-160zM704 512v-96c0-123.71-100.29-224-224-224-123.712 0-224 100.29-224 224v96h-64v-96c0-148.238 112.004-270.3 256-286.22v-129.78h-128v-64h320v64h-128v129.78c143.994 15.92 256 137.982 256 286.22v96h-64z" />
<glyph unicode="&#xe91f;" glyph-name="book" d="M896 832v-832h-672c-53.026 0-96 42.98-96 96s42.974 96 96 96h608v768h-640c-70.398 0-128-57.6-128-128v-768c0-70.4 57.602-128 128-128h768v896h-64zM224.056 128v0c-0.018-0.002-0.038 0-0.056 0-17.672 0-32-14.326-32-32s14.328-32 32-32c0.018 0 0.038 0.002 0.056 0.002v-0.002h607.89v64h-607.89z" />
<glyph unicode="&#xe920;" glyph-name="caret-right" d="M747.813 480.248c15.905-18.557 15.905-45.934 0-64.492l-396.389-462.451c-17.805-20.778-49.085-23.182-69.863-5.378-20.778 17.811-23.182 49.093-5.371 69.869l368.744 430.204-368.744 430.204c-17.811 20.778-15.406 52.057 5.371 69.866s52.058 15.402 69.863-5.374l396.389-462.449z" />
<glyph unicode="&#xe921;" glyph-name="caret-down" d="M544.247 212.186c-18.557-15.905-45.934-15.905-64.492 0l-462.451 396.389c-20.778 17.805-23.182 49.085-5.378 69.863 17.811 20.778 49.093 23.182 69.869 5.371l430.204-368.744 430.204 368.744c20.778 17.811 52.057 15.406 69.866-5.371s15.402-52.058-5.374-69.863l-462.449-396.389z" />
<glyph unicode="&#xe922;" glyph-name="caret-left" d="M276.187 415.752c-15.905 18.557-15.905 45.934 0 64.492l396.389 462.451c17.805 20.778 49.085 23.182 69.863 5.378 20.778-17.811 23.182-49.093 5.371-69.869l-368.744-430.204 368.744-430.204c17.811-20.778 15.406-52.057-5.371-69.866s-52.058-15.402-69.863 5.374l-396.389 462.449z" />
<glyph unicode="&#xe923;" glyph-name="r-arrow-up" d="M1024 448.001c0 282.773-229.23 511.997-512.001 511.997-282.766 0-511.999-229.225-511.999-511.997 0-282.769 229.232-511.999 511.999-511.999 282.771 0 512.001 229.23 512.001 511.999zM331.247 472.049c-14.999 14.996-14.999 39.31 0 54.306l153.6 153.6c14.996 14.999 39.31 14.999 54.305 0l153.6-153.6c14.996-14.996 14.996-39.31 0-54.306s-39.31-14.996-54.305 0l-88.048 88.046v-316.894c0-21.208-17.192-38.4-38.4-38.4s-38.4 17.192-38.4 38.4v316.894l-88.048-88.046c-14.996-14.996-39.306-14.996-54.305 0z" />
<glyph unicode="&#xe924;" glyph-name="Map-Point-Wave" d="M181.333 596.709c0 173.312 150.249 309.958 330.667 309.958 180.416 0 330.667-136.646 330.667-309.958 0-162.609-100.817-353.509-263.475-423.021-42.701-18.249-91.682-18.249-134.383 0-162.659 69.513-263.475 260.412-263.475 423.021zM512 842.667c-149.481 0-266.667-112.246-266.667-245.958 0-142.010 89.832-306.567 224.627-364.171 26.637-11.383 57.442-11.383 84.079 0 134.797 57.604 224.627 222.161 224.627 364.171 0 133.712-117.188 245.958-266.667 245.958zM512 629.333c-29.457 0-53.333-23.878-53.333-53.333s23.876-53.333 53.333-53.333c29.457 0 53.333 23.878 53.333 53.333s-23.876 53.333-53.333 53.333zM394.667 576c0 64.801 52.531 117.333 117.333 117.333s117.333-52.532 117.333-117.333c0-64.802-52.531-117.333-117.333-117.333s-117.333 52.531-117.333 117.333zM153.404 320.145c11.863-13.099 10.859-33.335-2.241-45.197-24.221-21.935-33.83-42.931-33.83-61.615 0-32.585 30.891-72.738 106.1-106.581 72.204-32.495 174.2-53.419 288.567-53.419s216.363 20.924 288.567 53.419c75.209 33.843 106.099 73.997 106.099 106.581 0 18.684-9.609 39.68-33.83 61.615-13.099 11.861-14.101 32.098-2.24 45.197 11.861 13.103 32.098 14.106 45.197 2.24 32.559-29.478 54.874-66.432 54.874-109.052 0-73.455-64.623-129.301-143.838-164.945-82.219-37.001-193.553-59.055-314.829-59.055-121.274 0-232.612 22.054-314.831 59.055-79.215 35.644-143.836 91.49-143.836 164.945 0 42.62 22.317 79.573 54.871 109.052 13.1 11.866 33.337 10.863 45.199-2.24z" />
<glyph unicode="&#xe925;" glyph-name="Phone" d="M130.364 892.052c63.922 63.558 169.169 52.245 222.692-19.25l66.214-88.447c43.551-58.174 39.708-139.479-11.988-190.881l-12.539-12.466c-0.546-1.59-1.874-6.59-0.399-16.092 3.319-21.397 21.187-66.787 96.196-141.369 74.983-74.557 120.692-92.411 142.393-95.74 9.834-1.508 14.981-0.1 16.572 0.457l21.424 21.298c45.956 45.699 116.575 54.242 173.474 23.309l100.319-54.536c85.899-46.696 107.607-163.46 37.223-233.439l-74.589-74.169c-23.504-23.367-55.109-42.858-93.682-46.45-94.989-8.858-316.483 2.442-549.208 233.849-217.278 216.043-258.973 404.445-264.248 497.271v0c-2.667 46.939 19.512 86.651 47.727 114.706l82.419 81.95zM290.004 825.599c-26.602 35.536-76.185 38.362-104.104 10.601l-82.419-81.95c-17.324-17.226-25.658-36.209-24.626-54.384 4.192-73.753 37.866-243.763 241.148-445.892 213.263-212.047 410.236-218.374 486.364-211.276 15.553 1.45 31.022 9.53 45.458 23.881l74.589 74.163c30.324 30.15 23.634 85.049-19.308 108.395l-100.319 54.53c-27.704 15.060-60.159 10.093-80.323-9.956l-23.912-23.782-27.767 27.924c27.767-27.924 27.73-27.961 27.693-27.998l-0.079-0.079-0.162-0.153-0.341-0.331-0.767-0.714c-0.551-0.505-1.186-1.056-1.895-1.649-1.429-1.181-3.183-2.516-5.277-3.922-4.206-2.815-9.756-5.881-16.735-8.481-14.219-5.298-32.976-8.138-56.226-4.573-45.514 6.978-105.805 38.011-185.987 117.736-80.155 79.698-111.448 139.713-118.497 185.149-3.605 23.233-0.73 41.995 4.634 56.227 2.628 6.975 5.725 12.521 8.567 16.716 1.418 2.092 2.767 3.841 3.957 5.262 0.596 0.71 1.152 1.339 1.658 1.889l0.721 0.765 0.33 0.34 0.158 0.159 0.076 0.076c0.037 0.037 0.075 0.075 27.845-27.852l-27.77 27.927 15.060 14.975c22.508 22.377 25.658 59.526 4.471 87.826l-66.213 88.447z" />
<glyph unicode="&#xe926;" glyph-name="Point-On-Map" horiz-adv-x="1067" d="M205.941 646.985c0 174.607 148.432 313.014 327.557 313.014 175.085 0 320.841-132.231 327.335-301.25l23.182-7.728c22.477-7.489 42.175-14.054 57.8-21.324 16.892-7.859 32.377-17.983 44.213-34.404s16.543-34.311 18.658-52.823c1.955-17.126 1.951-37.886 1.951-61.577v-278.944c0-29.572 0.005-54.801-2.291-75.042-2.417-21.289-7.812-42.214-22.439-60.062-8.395-10.249-18.591-18.887-30.082-25.487-20.013-11.491-41.54-13.374-62.934-12.253-20.343 1.062-45.232 5.211-74.402 10.075l-2.019 0.334c-62.735 10.458-88.014 14.408-112.65 12.345-9.011-0.752-17.969-2.101-26.806-4.027-24.147-5.275-47.372-16.596-104.769-45.295-1.995-1-3.969-1.985-5.92-2.961-67.094-33.561-108.434-54.239-153.039-60.697-13.416-1.941-26.956-2.907-40.512-2.878-45.071 0.083-88.586 14.597-159.174 38.138-2.042 0.679-4.106 1.368-6.194 2.068l-20.425 6.808c-22.473 7.487-42.171 14.053-57.798 21.323-16.894 7.857-32.377 17.979-44.212 34.4s-16.544 34.314-18.657 52.827c-1.955 17.125-1.954 37.885-1.953 61.576v243.596c-0.001 38.147-0.003 70.301 3.265 95.486 3.411 26.288 11.123 51.992 32.286 71.32 6.221 5.682 13.078 10.625 20.436 14.73 25.030 13.964 51.852 13.153 77.869 8.076 5.277-1.029 10.806-2.297 16.586-3.771-3.206 21.636-4.862 43.205-4.862 64.406zM230.142 500.969c-20.768 6.697-36.708 11.37-49.865 13.937-19.175 3.742-25.461 1.475-28.463-0.199-2.452-1.368-4.738-3.014-6.813-4.911-2.539-2.315-6.676-7.566-9.191-26.937-2.587-19.934-2.66-47.314-2.66-88.586v-239.224c0-26.161 0.056-42.723 1.482-55.229 1.322-11.574 3.484-15.879 5.388-18.518s5.302-6.052 15.865-10.967c11.411-5.309 27.108-10.598 51.924-18.872l18.613-6.202c78.788-26.263 110.586-36.41 142.487-36.468 10.020-0.019 20.028 0.689 29.944 2.126 31.564 4.571 61.898 19.255 136.838 56.723 1.518 0.762 3.019 1.509 4.503 2.252 51.473 25.744 83.176 41.602 117.289 49.051 11.957 2.61 24.070 4.436 36.264 5.455 34.794 2.912 69.496-2.878 125.792-12.267 1.616-0.267 3.246-0.539 4.896-0.815 31.751-5.29 52.531-8.696 68.254-9.521 15.136-0.79 20.338 1.227 22.886 2.689 3.828 2.199 7.23 5.081 10.026 8.497 1.863 2.271 4.708 7.071 6.416 22.128 1.777 15.645 1.83 36.701 1.83 68.889v274.988c0 26.161-0.053 42.723-1.48 55.229-1.325 11.574-3.484 15.876-5.391 18.517-1.903 2.641-5.299 6.053-15.864 10.967-11.409 5.308-27.108 10.598-51.924 18.871l-2.854 0.952c-9.23-63.151-31.693-126.907-64.803-183.81-44.281-76.096-109.070-142.378-190.236-177.784-43.077-18.795-92.517-18.795-135.594 0-81.168 35.406-145.955 101.688-190.235 177.784-18.636 32.023-33.898 66.22-45.326 101.256zM533.499 887.21c-142.484 0-254.767-109.287-254.767-240.224 0-68.784 21.228-144.635 59.651-210.665 38.433-66.051 92.603-119.833 156.426-147.677 24.52-10.696 52.861-10.696 77.381 0 63.823 27.845 117.993 81.628 156.427 147.677 38.423 66.031 59.65 141.881 59.65 210.665 0 130.937-112.282 240.224-254.767 240.224zM533.499 693.102c-33.503 0-60.658-27.158-60.658-60.658s27.155-60.658 60.658-60.658c33.503 0 60.658 27.158 60.658 60.658s-27.155 60.658-60.658 60.658zM400.050 632.443c0 73.702 59.746 133.449 133.449 133.449s133.449-59.747 133.449-133.449c0-73.702-59.746-133.449-133.449-133.449s-133.449 59.747-133.449 133.449z" />
<glyph unicode="&#xe927;" glyph-name="Add-Square" d="M547.72 590.883c0 19.728-15.993 35.721-35.721 35.721s-35.721-15.993-35.721-35.721v-107.164h-107.162c-19.728 0-35.721-15.993-35.721-35.721s15.993-35.721 35.721-35.721h107.162v-107.164c0-19.725 15.992-35.721 35.721-35.721s35.721 15.996 35.721 35.721v107.164h107.162c19.725 0 35.721 15.993 35.721 35.721s-15.996 35.721-35.721 35.721h-107.162v107.164zM514.732 959.998h-5.465c-109.944 0.001-196.104 0.001-263.331-9.037-68.809-9.252-123.106-28.557-165.723-71.174s-61.923-96.915-71.175-165.725c-9.038-67.225-9.037-153.386-9.037-263.329v-5.466c-0.001-109.944-0.001-196.106 9.037-263.333 9.251-68.805 28.557-123.101 71.175-165.723 42.618-42.615 96.914-61.919 165.723-71.17 67.225-9.037 153.386-9.037 263.331-9.037h5.465c109.944 0 196.104 0 263.331 9.037 68.813 9.252 123.108 28.555 165.723 71.17 42.615 42.622 61.925 96.917 71.177 165.723 9.037 67.227 9.037 153.39 9.037 263.333v5.465c0 109.944 0 196.104-9.037 263.329-9.252 68.809-28.562 123.107-71.177 165.725s-96.911 61.923-165.723 71.174c-67.227 9.038-153.387 9.037-263.331 9.037zM130.729 829.27c27.131 27.131 63.839 42.701 124.726 50.887 61.915 8.324 143.273 8.4 256.544 8.4s194.628-0.076 256.54-8.4c60.889-8.186 97.596-23.755 124.73-50.887s42.701-63.84 50.888-124.726c8.323-61.915 8.401-143.274 8.401-256.544s-0.078-194.632-8.401-256.542c-8.187-60.889-23.754-97.596-50.888-124.73-27.133-27.127-63.84-42.701-124.73-50.881-61.911-8.33-143.271-8.401-256.54-8.401s-194.628 0.071-256.544 8.401c-60.887 8.18-97.595 23.754-124.726 50.881-27.131 27.133-42.701 63.84-50.888 124.73-8.324 61.911-8.4 143.273-8.4 256.542s0.076 194.628 8.4 256.544c8.187 60.887 23.755 97.595 50.888 124.726z" />
<glyph unicode="&#xe928;" glyph-name="Alt-Arrow-Down" d="M11.93 678.44c17.81 20.776 49.088 23.184 69.866 5.374l430.204-368.747 430.204 368.747c20.778 17.808 52.058 15.402 69.869-5.374 17.805-20.778 15.4-52.057-5.378-69.866l-462.451-396.389c-18.557-15.902-45.934-15.902-64.492 0l-462.449 396.389c-20.776 17.81-23.184 49.088-5.374 69.866z" />
<glyph unicode="&#xe929;" glyph-name="Alt-Arrow-Left" d="M742.439 948.069c20.778-17.81 23.182-49.088 5.371-69.866l-368.744-430.204 368.744-430.204c17.811-20.778 15.406-52.058-5.371-69.869-20.778-17.805-52.058-15.4-69.863 5.378l-396.389 462.451c-15.905 18.557-15.905 45.934 0 64.492l396.389 462.449c17.805 20.776 49.085 23.184 69.863 5.374z" />
<glyph unicode="&#xe92a;" glyph-name="Alt-Arrow-Right" d="M281.562 948.070c20.776 17.809 52.056 15.403 69.867-5.374l396.381-462.453c15.909-18.553 15.909-45.934 0-64.487l-396.381-462.454c-17.814-20.776-49.092-23.183-69.867-5.369-20.777 17.807-23.183 49.089-5.374 69.863l368.746 430.208-368.746 430.201c-17.809 20.777-15.403 52.057 5.374 69.866z" />
<glyph unicode="&#xe92b;" glyph-name="Alt-Arrow-Up" d="M479.753 683.814c18.557 15.905 45.934 15.905 64.492 0l462.451-396.389c20.778-17.805 23.182-49.085 5.378-69.863-17.811-20.778-49.093-23.182-69.869-5.371l-430.204 368.744-430.204-368.744c-20.778-17.811-52.057-15.406-69.866 5.371s-15.402 52.058 5.374 69.863l462.449 396.389z" />
<glyph unicode="&#xe92c;" glyph-name="Calendar" d="M750.139 364.652c26.305 0 47.628 21.323 47.628 47.628s-21.323 47.628-47.628 47.628c-26.305 0-47.628-21.323-47.628-47.628s21.323-47.628 47.628-47.628zM750.139 174.14c26.305 0 47.628 21.323 47.628 47.628s-21.323 47.628-47.628 47.628c-26.305 0-47.628-21.323-47.628-47.628s21.323-47.628 47.628-47.628zM559.628 412.279c0-26.305-21.323-47.628-47.628-47.628s-47.628 21.323-47.628 47.628c0 26.305 21.323 47.628 47.628 47.628s47.628-21.323 47.628-47.628zM559.628 221.768c0-26.305-21.323-47.628-47.628-47.628s-47.628 21.323-47.628 47.628c0 26.305 21.323 47.628 47.628 47.628s47.628-21.323 47.628-47.628zM273.861 364.652c26.304 0 47.628 21.323 47.628 47.628s-21.323 47.628-47.628 47.628c-26.304 0-47.628-21.323-47.628-47.628s21.324-47.628 47.628-47.628zM273.861 174.14c26.304 0 47.628 21.323 47.628 47.628s-21.323 47.628-47.628 47.628c-26.304 0-47.628-21.323-47.628-47.628s21.324-47.628 47.628-47.628zM273.861 948.093c-19.728 0-35.721-15.993-35.721-35.721v-39.392c-12.381-0.944-24.105-2.13-35.198-3.621-55.84-7.508-101.037-23.326-136.679-58.969s-51.46-80.84-58.969-136.679c-7.295-54.258-7.295-123.585-7.294-211.116v-100.628c-0.001-87.531-0.001-156.857 7.294-211.115 7.507-55.838 23.326-101.038 58.969-136.683 35.643-35.639 80.84-51.457 136.679-58.969 54.258-7.292 123.588-7.292 211.116-7.292h195.889c87.526 0 156.853 0 211.111 7.292 55.838 7.511 101.038 23.328 136.683 58.969 35.639 35.645 51.457 80.843 58.969 136.683 7.292 54.258 7.292 123.59 7.292 211.115v100.632c0 87.526 0 156.854-7.292 211.112-7.511 55.841-23.328 101.037-58.969 136.679-35.645 35.643-80.843 51.46-136.683 58.969-11.092 1.491-22.819 2.678-35.197 3.621v39.392c0 19.728-15.993 35.721-35.721 35.721s-35.721-15.993-35.721-35.721v-36.327c-31.529 0.606-66.269 0.606-104.477 0.606h-195.89c-38.204 0-72.94 0-104.47-0.606v36.327c0 19.728-15.993 35.721-35.721 35.721zM212.461 798.553c48.945 6.58 113.465 6.656 204.283 6.656h190.512c90.817 0 155.338-0.076 204.286-6.656 47.914-6.442 75.524-18.524 95.68-38.68s32.239-47.764 38.679-95.682c1.091-8.115 2.005-16.658 2.767-25.679h-873.334c0.764 9.021 1.676 17.564 2.766 25.679 6.442 47.918 18.524 75.525 38.68 95.682s47.764 32.238 95.682 38.68zM71.442 459.907c0 40.674 0.016 76.075 0.624 107.163h879.868c0.609-31.087 0.624-66.489 0.624-107.163v-95.255c0-90.817-0.076-155.338-6.659-204.286-6.44-47.914-18.522-75.524-38.679-95.68s-47.766-32.239-95.68-38.679c-48.948-6.583-113.469-6.659-204.286-6.659h-190.512c-90.818 0-155.338 0.076-204.283 6.659-47.918 6.44-75.525 18.522-95.682 38.679s-32.238 47.766-38.68 95.68c-6.58 48.948-6.656 113.469-6.656 204.286v95.255z" />
<glyph unicode="&#xe92d;" glyph-name="Close-Circle" d="M418.187 592.329c-13.95 13.95-36.567 13.95-50.517 0s-13.95-36.567 0-50.516l93.811-93.813-93.81-93.813c-13.95-13.946-13.95-36.564 0-50.514s36.567-13.95 50.516 0l93.813 93.808 93.808-93.808c13.95-13.95 36.568-13.95 50.519 0s13.95 36.568 0 50.519l-93.813 93.808 93.813 93.813c13.95 13.948 13.95 36.565 0 50.515s-36.568 13.95-50.519 0l-93.808-93.809-93.813 93.81zM512 960c-282.77 0-512-229.23-512-512s229.23-512 512-512c282.771 0 512 229.228 512 512 0 282.77-229.228 512-512 512zM71.442 448c0 243.313 197.244 440.558 440.558 440.558 243.312 0 440.558-197.244 440.558-440.558 0-243.312-197.246-440.558-440.558-440.558s-440.558 197.246-440.558 440.558z" />
<glyph unicode="&#xe92e;" glyph-name="Eye-Closed" horiz-adv-x="1067" d="M1044.435 717.935c18.893-8.098 27.642-29.979 19.548-48.873l-34.213 14.661c34.213-14.661 34.219-14.653 34.213-14.661l-0.035-0.084-0.055-0.123-0.159-0.365-0.532-1.195c-0.447-0.999-1.082-2.4-1.905-4.17-1.653-3.541-4.064-8.569-7.265-14.843-6.397-12.539-15.946-30.101-28.804-50.735-21.122-33.898-51.415-76.485-91.637-118.794l48.059-48.059c14.531-14.531 14.531-38.099 0-52.635-14.536-14.536-38.104-14.536-52.641 0l-49.657 49.657c-32.739-27.429-70.283-53.176-112.853-74.328l46.333-71.201c11.21-17.231 6.332-40.288-10.899-51.498s-40.288-6.332-51.498 10.899l-54.055 83.072c-38.675-12.631-80.55-21.216-125.668-24.292v-88.104c0-20.561-16.664-37.221-37.221-37.221s-37.221 16.66-37.221 37.221v88.104c-43.722 2.982-84.406 11.136-122.088 23.136l-53.304-81.921c-11.212-17.226-34.268-22.109-51.497-10.899-17.23 11.216-22.109 34.268-10.899 51.498l45.281 69.592c-42.898 20.948-80.748 46.581-113.77 73.97l-47.691-47.693c-14.536-14.536-38.102-14.536-52.638 0s-14.536 38.104 0 52.641l45.844 45.841c-40.921 42.665-71.727 85.772-93.19 120.108-13.048 20.875-22.738 38.662-29.225 51.363-3.245 6.355-5.696 11.451-7.37 15.041-0.837 1.795-1.481 3.214-1.933 4.226l-0.535 1.211-0.215 0.494-0.020 0.048c-0.003 0.009-0.016 0.037 34.195 14.699l-34.195-14.699c-8.097 18.894 0.64 40.813 19.534 48.91 18.879 8.091 40.739-0.641 48.853-19.503 0.003-0.007-0.003 0.007 0 0l0.048-0.108 0.301-0.68c0.292-0.655 0.769-1.706 1.43-3.124 1.324-2.837 3.387-7.135 6.205-12.655 5.642-11.048 14.286-26.937 26.052-45.763 23.604-37.76 59.397-86.724 108.232-132.107 42.973-39.94 95.632-76.725 158.612-100.958 47.367-18.223 100.93-29.483 161.203-29.483 61.622 0 116.233 11.772 164.391 30.725 62.601 24.64 114.903 61.668 157.529 101.682 48.119 45.16 83.385 93.637 106.64 130.955 11.593 18.605 20.104 34.29 25.663 45.187 2.779 5.445 4.808 9.682 6.115 12.478 0.65 1.397 1.121 2.433 1.41 3.077l0.293 0.669 0.030 0.059c0 0.005-0.005-0.005 0 0zM1044.435 717.935c-18.893 8.096-40.774-0.665-48.873-19.549zM71.409 698.433c0.003-0.007-0.003 0.007 0 0z" />
<glyph unicode="&#xe92f;" glyph-name="Eye" horiz-adv-x="1067" d="M533.498 634.106c-102.784 0-186.105-83.321-186.105-186.105s83.32-186.105 186.105-186.105 186.105 83.32 186.105 186.105c0 102.783-83.32 186.105-186.105 186.105zM421.835 448.001c0 61.668 49.995 111.663 111.663 111.663s111.663-49.995 111.663-111.663c0-61.668-49.995-111.663-111.663-111.663s-111.663 49.995-111.663 111.663zM533.498 882.245c-224.027 0-374.924-134.203-462.503-247.983l-1.58-2.052c-19.806-25.723-38.049-49.415-50.424-77.43-13.253-30-18.992-62.695-18.992-106.78s5.739-76.78 18.992-106.78c12.376-28.015 30.618-51.707 50.425-77.43l1.58-2.049c87.58-113.782 238.477-247.985 462.503-247.985s374.924 134.203 462.502 247.985l1.578 2.049c19.812 25.722 38.050 49.414 50.427 77.43 13.255 30 18.993 62.695 18.993 106.78s-5.737 76.78-18.993 106.78c-12.377 28.015-30.615 51.707-50.427 77.43l-1.578 2.051c-87.578 113.78-238.477 247.983-462.502 247.983zM129.985 588.856c80.865 105.056 212.464 218.948 403.513 218.948s322.651-113.892 403.514-218.948c21.767-28.277 34.517-45.176 42.898-64.154 7.841-17.742 12.645-39.424 12.645-76.699s-4.804-58.958-12.645-76.699c-8.382-18.978-21.131-35.876-42.898-64.154-80.864-105.057-212.467-218.948-403.514-218.948-191.049 0-322.648 113.891-403.513 218.948-21.766 28.277-34.515 45.176-42.902 64.154-7.837 17.742-12.643 39.424-12.643 76.699s4.806 58.958 12.643 76.699c8.386 18.978 21.134 35.876 42.902 64.154z" />
<glyph unicode="&#xe930;" glyph-name="Magnifersearch" d="M488.187 888.559c-230.162 0-416.745-186.583-416.745-416.745s186.583-416.745 416.745-416.745c230.163 0 416.745 186.583 416.745 416.745s-186.583 416.745-416.745 416.745zM0 471.814c0 269.619 218.569 488.187 488.187 488.187s488.187-218.569 488.187-488.187c0-121.951-44.718-233.458-118.646-319.022l155.811-155.815c13.95-13.95 13.95-36.564 0-50.514s-36.564-13.95-50.514 0l-155.815 155.811c-85.564-73.928-197.070-118.646-319.022-118.646-269.619 0-488.187 218.57-488.187 488.187z" />
<glyph unicode="&#xe931;" glyph-name="Map-Point-Add" d="M95.256 536.431c0 233.33 185.988 423.569 416.744 423.569 230.754 0 416.745-190.239 416.745-423.569 0-112.645-32.106-233.601-88.853-338.091-56.682-104.362-139.497-195.051-243.091-243.474-53.817-25.154-115.787-25.154-169.604 0-103.596 48.423-186.41 139.112-243.090 243.474-56.749 104.491-88.853 225.446-88.853 338.091zM512.001 888.559c-190.11 0-345.302-157.052-345.302-352.127 0-99.879 28.702-209.188 80.19-303.992 51.56-94.94 124.419-172.589 210.561-212.855 34.645-16.196 74.457-16.196 109.102 0 86.141 40.264 159 117.915 210.559 212.855 51.488 94.805 80.194 204.113 80.194 303.992 0 195.076-155.193 352.127-345.303 352.127zM512.001 698.046c19.728 0 35.721-15.993 35.721-35.721v-83.349h83.349c19.728 0 35.72-15.992 35.72-35.721s-15.992-35.721-35.72-35.721h-83.349v-83.348c0-19.728-15.993-35.721-35.721-35.721s-35.721 15.993-35.721 35.721v83.348h-83.349c-19.728 0-35.721 15.993-35.721 35.721s15.993 35.721 35.721 35.721h83.349v83.349c0 19.728 15.993 35.721 35.721 35.721z" />
<glyph unicode="&#xe932;" glyph-name="Pen-2" d="M611.985 905.653l-361.688-361.688c-20.388-20.386-32.838-32.834-43.66-46.71-12.751-16.347-23.682-34.035-32.602-52.751-7.571-15.885-13.138-32.589-22.253-59.939l-52.618-157.855c-9.118-27.356-1.999-57.511 18.391-77.901s50.549-27.512 77.903-18.396l157.855 52.617c27.351 9.116 44.054 14.688 59.939 22.254 18.714 8.924 36.403 19.854 52.751 32.607 13.874 10.817 26.323 23.269 46.709 43.658l361.687 361.687c72.463 72.465 72.463 189.951 0 262.416s-189.95 72.463-262.413 0zM224.373 215.36l-40.263 40.264 34.694 104.080c10.101 30.304 14.274 42.624 19.725 54.065 6.687 14.032 14.882 27.292 24.442 39.548 7.794 9.993 16.949 19.235 39.535 41.822l280.575 280.575c11.58-29.052 31.176-64.118 64.22-97.161 33.046-33.043 68.11-52.638 97.158-64.22l-280.573-280.575c-22.587-22.587-31.829-31.739-41.822-39.533-12.256-9.559-25.517-17.76-39.548-24.448-11.441-5.451-23.761-9.623-54.065-19.725l-104.080-34.692zM801.393 671.261c-5.901 1.295-13.274 3.243-21.661 6.152-23.055 7.998-53.374 23.122-81.915 51.659-28.534 28.538-43.658 58.862-51.656 81.914-2.908 8.384-4.857 15.759-6.151 21.656l22.493 22.494c44.565 44.564 116.814 44.564 161.381 0s44.565-116.817 0-161.381l-22.49-22.494zM95.258-28.279c0 19.725 15.993 35.721 35.721 35.721h762.046v-71.442h-762.046c-19.728 0-35.721 15.989-35.721 35.721z" />
<glyph unicode="&#xe933;" glyph-name="Question-Circle" d="M512 888.557c-243.313 0-440.557-197.244-440.557-440.557s197.244-440.559 440.557-440.559c243.316 0 440.56 197.244 440.56 440.559s-197.244 440.557-440.56 440.557zM0 448c0 282.77 229.23 511.999 511.999 511.999 282.766 0 512.001-229.23 512.001-511.999 0-282.772-229.235-512-512.001-512-282.77 0-511.999 229.228-511.999 512zM512 650.417c-29.593 0-53.581-23.989-53.581-53.581 0-19.727-15.993-35.721-35.721-35.721s-35.721 15.993-35.721 35.721c0 69.048 55.974 125.023 125.023 125.023s125.023-55.974 125.023-125.023c0-45.881-24.736-85.947-61.428-107.656-9.37-5.544-17.106-11.597-22.146-17.536-4.894-5.767-5.729-9.527-5.729-11.737v-59.535c0-19.727-15.993-35.721-35.721-35.721s-35.721 15.993-35.721 35.721v59.535c0 24.094 10.549 43.644 22.7 57.962 12.004 14.146 26.972 24.948 40.24 32.798 15.859 9.383 26.363 26.569 26.363 46.169 0 29.593-23.989 53.581-53.581 53.581zM512 209.858c26.304 0 47.627 21.325 47.627 47.63s-21.323 47.629-47.627 47.629c-26.304 0-47.628-21.324-47.628-47.629s21.324-47.63 47.628-47.63z" />
<glyph unicode="&#xe934;" glyph-name="Round-Alt-Arrow-Left" d="M512 888.558c-243.313 0-440.558-197.244-440.558-440.558 0-243.312 197.244-440.558 440.558-440.558 243.312 0 440.558 197.246 440.558 440.558s-197.246 440.558-440.558 440.558zM0 448c0 282.77 229.23 512 512 512s512-229.23 512-512c0-282.771-229.228-512-512-512-282.77 0-512 229.228-512 512zM608.699 616.142c13.95-13.95 13.95-36.567 0-50.517l-117.622-117.626 117.622-117.627c13.95-13.95 13.95-36.564 0-50.514s-36.564-13.95-50.514 0l-142.885 142.884c-13.95 13.95-13.95 36.564 0 50.514l142.885 142.885c13.95 13.95 36.564 13.95 50.514 0z" />
<glyph unicode="&#xe935;" glyph-name="Round-Alt-Arrow-Right" d="M512 888.558c-243.313 0-440.558-197.244-440.558-440.558 0-243.312 197.244-440.558 440.558-440.558 243.312 0 440.558 197.246 440.558 440.558s-197.246 440.558-440.558 440.558zM0 448c0 282.77 229.23 512 512 512s512-229.23 512-512c0-282.771-229.228-512-512-512-282.77 0-512 229.228-512 512zM415.3 616.142c13.951 13.95 36.565 13.95 50.516 0l142.884-142.885c13.95-13.95 13.95-36.564 0-50.514l-142.884-142.884c-13.95-13.95-36.564-13.95-50.516 0-13.95 13.95-13.95 36.564 0 50.514l117.623 117.627-117.623 117.626c-13.95 13.95-13.95 36.567 0 50.517z" />
<glyph unicode="&#xe936;" glyph-name="Round-Double-Alt-Arrow-Left" d="M512 888.558c-243.313 0-440.558-197.244-440.558-440.558 0-243.312 197.244-440.558 440.558-440.558 243.312 0 440.558 197.246 440.558 440.558s-197.246 440.558-440.558 440.558zM0 448c0 282.77 229.23 512 512 512s512-229.23 512-512c0-282.771-229.228-512-512-512-282.77 0-512 229.228-512 512zM513.443 616.142c13.95-13.95 13.95-36.567 0-50.517l-117.623-117.626 117.623-117.627c13.95-13.95 13.95-36.564 0-50.514s-36.564-13.95-50.514 0l-142.885 142.884c-13.95 13.95-13.95 36.564 0 50.514l142.885 142.885c13.95 13.95 36.564 13.95 50.514 0zM703.954 616.142c13.95-13.95 13.95-36.567 0-50.517l-117.622-117.626 117.622-117.627c13.95-13.95 13.95-36.564 0-50.514s-36.564-13.95-50.514 0l-142.884 142.884c-13.95 13.95-13.95 36.564 0 50.514l142.884 142.885c13.95 13.95 36.564 13.95 50.514 0z" />
<glyph unicode="&#xe937;" glyph-name="Round-Double-Alt-Arrow-Right" d="M512 888.558c-243.313 0-440.558-197.244-440.558-440.558 0-243.312 197.244-440.558 440.558-440.558 243.312 0 440.558 197.246 440.558 440.558s-197.246 440.558-440.558 440.558zM0 448c0 282.77 229.23 512 512 512s512-229.23 512-512c0-282.771-229.228-512-512-512-282.77 0-512 229.228-512 512zM320.044 616.142c13.95 13.95 36.567 13.95 50.517 0l142.883-142.885c13.95-13.95 13.95-36.564 0-50.514l-142.883-142.884c-13.95-13.95-36.567-13.95-50.517 0s-13.95 36.564 0 50.514l117.623 117.627-117.623 117.626c-13.95 13.95-13.95 36.567 0 50.517zM510.557 616.142c13.95 13.95 36.564 13.95 50.514 0l142.884-142.885c13.95-13.95 13.95-36.564 0-50.514l-142.884-142.884c-13.95-13.95-36.564-13.95-50.514 0s-13.95 36.564 0 50.514l117.622 117.627-117.622 117.626c-13.95 13.95-13.95 36.567 0 50.517z" />
<glyph unicode="&#xe938;" glyph-name="Ticket-Sale" d="M413.823 864.747c-87.756 0.001-157.248 0.001-211.63-7.292-55.954-7.505-101.233-23.311-136.95-58.939-49.036-48.913-60.953-116.273-64.711-205.629-0.016-0.383-0.032-0.767-0.048-1.152-0.329-7.803-0.666-15.771-0.371-22.482 0.314-7.14 1.418-17.449 7.119-27.634 3.945-7.047 9.228-11.919 12.748-14.835 3.818-3.162 8.056-6.028 12.098-8.576 7.798-4.918 18.344-10.809 30.707-17.712l0.91-0.508c18.371-10.259 30.61-29.743 30.61-51.987s-12.239-41.729-30.61-51.987l-0.909-0.508c-12.363-6.903-22.911-12.793-30.708-17.712-4.041-2.55-8.281-5.415-12.098-8.578-3.52-2.916-8.803-7.787-12.748-14.835-5.701-10.184-6.805-20.494-7.119-27.634-0.295-6.711 0.041-14.678 0.371-22.48l0.048-1.158c3.756-89.353 15.675-156.715 64.711-205.625 35.717-35.628 80.996-51.438 136.95-58.94 54.382-7.294 123.874-7.294 211.63-7.294h196.351c87.759 0 157.251 0 211.632 7.294 55.954 7.501 101.233 23.311 136.948 58.94 49.038 48.909 60.955 116.272 64.712 205.625l0.050 1.158c0.328 7.801 0.664 15.767 0.372 22.48-0.315 7.139-1.422 17.449-7.123 27.632-3.944 7.048-9.231 11.919-12.746 14.835-3.822 3.162-8.058 6.028-12.103 8.578-7.794 4.918-18.339 10.807-30.699 17.71l-0.914 0.51c-18.375 10.259-30.613 29.743-30.613 51.987s12.238 41.729 30.613 51.987l0.908 0.507c12.366 6.904 22.912 12.793 30.706 17.713 4.043 2.55 8.281 5.415 12.103 8.576 3.515 2.916 8.802 7.788 12.746 14.835 5.701 10.184 6.808 20.493 7.123 27.632 0.292 6.711-0.042 14.679-0.372 22.483l-0.050 1.151c-3.757 89.356-15.675 156.715-64.712 205.629-35.714 35.627-80.994 51.435-136.948 58.939-54.382 7.293-123.874 7.293-211.632 7.292h-196.351zM952.409 324.92c0 0 0.007-0.047 0.021-0.157zM952.523 318.168c-0.007-0.311-0.015-0.636-0.021-0.973-0.078-3.046-0.229-6.586-0.414-11.078-3.715-88.398-15.795-130.12-43.787-158.048-20.225-20.176-47.931-32.271-95.989-38.715-49.087-6.579-113.778-6.659-204.82-6.659h-190.987c-91.039 0-155.735 0.078-204.816 6.659-48.064 6.444-75.769 18.539-95.991 38.715-27.995 27.927-40.070 69.649-43.786 158.046-0.189 4.492-0.336 8.033-0.415 11.078-0.009 0.337-0.017 0.662-0.022 0.973 5.938 3.666 14.465 8.441 27.054 15.472 40.001 22.338 67.218 65.134 67.218 114.362s-27.218 92.024-67.218 114.362c-12.589 7.030-21.117 11.806-27.054 15.472 0.007 0.313 0.015 0.636 0.022 0.973 0.078 3.047 0.227 6.587 0.415 11.078 3.716 88.399 15.791 130.124 43.786 158.049 20.223 20.172 47.928 32.265 95.991 38.71 49.082 6.583 113.777 6.659 204.816 6.659h190.987c91.041 0 155.731-0.076 204.82-6.659 48.059-6.445 75.764-18.538 95.989-38.71 27.991-27.925 40.072-69.649 43.787-158.049 0.185-4.492 0.336-8.032 0.414-11.078 0.007-0.337 0.015-0.661 0.021-0.973-5.936-3.666-14.467-8.441-27.055-15.472-40.001-22.338-67.22-65.133-67.22-114.362s27.219-92.024 67.22-114.362c12.588-7.030 21.118-11.805 27.055-15.472zM958.438 581.802l-0.050-0.045c0.2 0.183 0.236 0.199 0.050 0.045zM952.409 571.082c0 0 0.007 0.057 0.021 0.157zM65.556 581.802c-0.185 0.154-0.147 0.14 0.055-0.045l-0.055 0.045zM71.567 571.241c0.017-0.102 0.021-0.157 0.021-0.157zM71.589 324.92c0 0-0.004-0.057-0.021-0.157zM65.61 314.246c-0.201-0.184-0.24-0.199-0.055-0.045l0.055 0.045zM958.389 314.245l0.050-0.044c0.185-0.154 0.15-0.14-0.050 0.044zM680.143 616.144c13.946-13.95 13.946-36.567 0-50.517l-285.77-285.769c-13.95-13.952-36.567-13.952-50.517 0s-13.95 36.567 0 50.518l285.768 285.768c13.95 13.95 36.567 13.95 50.52 0zM678.693 328.932c0-26.305-21.319-47.631-47.625-47.631-26.304 0-47.627 21.325-47.627 47.631s21.323 47.627 47.627 47.627c26.306 0 47.625-21.323 47.625-47.627zM440.557 567.071c0-26.304-21.324-47.628-47.628-47.628s-47.628 21.324-47.628 47.628c0 26.304 21.324 47.628 47.628 47.628s47.628-21.324 47.628-47.628z" />
<glyph unicode="&#xe939;" glyph-name="Trash-Bin-Trash" d="M423.217 959.999c-11.364 0.007-21.264 0.014-30.612-1.479-36.932-5.898-68.891-28.933-86.165-62.105-4.373-8.396-7.498-17.792-11.083-28.574l-5.861-17.585c-0.997-2.992-1.275-3.817-1.518-4.485-9.195-25.422-33.038-42.607-60.063-43.291-0.71-0.018-1.58-0.021-4.734-0.021h-157.543c-21.751 0-39.385-17.632-39.385-39.385s17.633-39.385 39.385-39.385h892.72c21.756 0 39.385 17.633 39.385 39.385s-17.628 39.385-39.385 39.385h-157.538c-3.151 0-4.025 0.004-4.734 0.021-27.025 0.686-50.869 17.871-60.061 43.293-0.244 0.663-0.528 1.506-1.52 4.482l-5.861 17.586c-3.584 10.783-6.711 20.176-11.083 28.572-17.274 33.172-49.232 56.207-86.164 62.105-9.349 1.493-19.249 1.487-30.612 1.479h-177.569zM354.886 802.46c2.705 5.305 5.102 10.818 7.164 16.518 0.626 1.732 1.241 3.574 2.030 5.942l5.241 15.723c4.788 14.363 5.89 17.292 6.983 19.392 5.758 11.057 16.411 18.735 28.721 20.702 2.338 0.373 5.465 0.492 20.606 0.492h172.74c15.14 0 18.267-0.119 20.606-0.492 12.311-1.966 22.964-9.644 28.721-20.702 1.093-2.1 2.196-5.029 6.983-19.392l5.237-15.713 2.033-5.952c2.063-5.701 4.459-11.212 7.164-16.518h-314.23zM192.462 634.413c-1.447 21.703-20.214 38.124-41.917 36.677s-38.124-20.214-36.677-41.917l24.336-365.052c4.49-67.364 8.117-121.777 16.622-164.47 8.843-44.394 23.883-81.471 54.95-110.529 31.067-29.066 69.062-41.606 113.942-47.482 43.167-5.639 97.697-5.639 165.206-5.639h46.154c67.509 0 122.042 0 165.211 5.639 44.875 5.876 82.873 18.416 113.94 47.482 31.067 29.058 46.112 66.134 54.949 110.529 8.507 42.693 12.13 97.106 16.62 164.463l24.34 365.059c1.45 21.703-14.974 40.47-36.674 41.917-21.708 1.447-40.471-14.974-41.921-36.677l-24.15-362.289c-4.719-70.781-8.081-120.028-15.462-157.082-7.161-35.942-17.156-54.973-31.515-68.404s-34.005-22.142-70.341-26.892c-37.465-4.9-86.827-4.978-157.764-4.978h-40.61c-70.937 0-120.299 0.079-157.762 4.978-36.338 4.75-55.986 13.462-70.345 26.892s-24.352 32.46-31.513 68.404c-7.381 37.053-10.745 86.299-15.462 157.082l-24.153 362.289zM376.801 539.701c21.643 2.165 40.944-13.627 43.108-35.27l26.256-262.561c2.165-21.646-13.626-40.944-35.27-43.11s-40.944 13.627-43.108 35.273l-26.257 262.561c-2.164 21.643 13.627 40.944 35.27 43.108zM647.204 539.701c21.643-2.165 37.433-21.465 35.266-43.108l-26.254-262.561c-2.165-21.646-21.465-37.439-43.108-35.273s-37.434 21.465-35.27 43.11l26.257 262.561c2.164 21.643 21.465 37.435 43.108 35.27z" />
<glyph unicode="&#xe93a;" glyph-name="danger-triangle" d="M585.143 165.143v108.571c0 10.286-8 18.857-18.286 18.857h-109.714c-10.286 0-18.286-8.571-18.286-18.857v-108.571c0-10.286 8-18.857 18.286-18.857h109.714c10.286 0 18.286 8.571 18.286 18.857zM584 378.857l10.286 262.286c0 3.429-1.714 8-5.714 10.857-3.429 2.857-8.571 6.286-13.714 6.286h-125.714c-5.143 0-10.286-3.429-13.714-6.286-4-2.857-5.714-8.571-5.714-12l9.714-261.143c0-7.429 8.571-13.143 19.429-13.143h105.714c10.286 0 18.857 5.714 19.429 13.143zM576 912.571l438.857-804.571c12.571-22.286 12-49.714-1.143-72s-37.143-36-62.857-36h-877.714c-25.714 0-49.714 13.714-62.857 36s-13.714 49.714-1.143 72l438.857 804.571c12.571 23.429 37.143 38.286 64 38.286s51.429-14.857 64-38.286z" />
<glyph unicode="&#xe93b;" glyph-name="Download-Minimalistic" d="M541.067 211.369c-7.462-8.16-18.010-12.807-29.067-12.807s-21.606 4.647-29.067 12.807l-210.052 229.748c-14.677 16.053-13.562 40.965 2.491 55.642s40.965 13.563 55.643-2.491l141.6-154.875v581.222c0 21.751 17.633 39.385 39.385 39.385s39.385-17.633 39.385-39.385v-581.222l141.604 154.875c14.674 16.054 39.589 17.169 55.643 2.491s17.164-39.589 2.489-55.642l-210.053-229.748zM78.769 290.461c0 21.751-17.633 39.385-39.385 39.385s-39.385-17.633-39.385-39.385v-2.882c-0.001-71.814-0.001-129.701 6.119-175.23 6.356-47.262 19.951-87.063 51.558-118.673 31.609-31.602 71.407-45.198 118.673-51.554 45.527-6.121 103.413-6.121 175.23-6.121h320.842c71.814 0 129.701 0 175.23 6.121 47.262 6.357 87.063 19.952 118.673 51.554 31.602 31.61 45.198 71.412 51.554 118.673 6.121 45.529 6.121 103.417 6.121 175.23v2.882c0 21.751-17.637 39.385-39.385 39.385s-39.385-17.633-39.385-39.385c0-75.375-0.086-127.953-5.419-167.614-5.175-38.534-14.651-58.943-29.184-73.476s-34.942-24.009-73.476-29.184c-39.66-5.333-92.239-5.419-167.614-5.419h-315.077c-75.377 0-127.948 0.086-167.615 5.419-38.533 5.175-58.938 14.651-73.471 29.184s-24.010 34.942-29.189 73.476c-5.333 39.66-5.417 92.239-5.417 167.614z" />
<glyph unicode="&#xe93c;" glyph-name="Filter-Vector" horiz-adv-x="1170" d="M214.941 959.999c0.82 0 1.642 0 2.468 0h737.652c35.021 0.002 64.961 0.003 88.892-3.015 25.38-3.202 49.908-10.391 70.057-29.292 20.496-19.235 28.648-43.235 32.225-68.204 3.285-22.937 3.285-51.459 3.277-83.997v-40.778c0.008-25.652 0.008-47.831-1.914-66.324-2.056-19.901-6.562-38.57-17.376-56.496-10.736-17.79-25.198-30.703-41.858-42.278-15.698-10.905-35.762-22.195-59.345-35.474l-154.522-86.982c-35.17-19.799-47.419-26.929-55.595-34.028-18.778-16.303-29.53-34.39-34.58-57.052-2.166-9.688-2.395-21.89-2.395-58.949v-143.471c0-47.324 0-87.505-4.868-118.391-5.175-32.847-17.203-64.346-48.709-84.055-30.792-19.259-64.71-17.495-97.673-9.665-31.747 7.538-70.868 22.835-117.81 41.188l-4.562 1.78c-21.989 8.594-41.242 16.124-56.484 23.993-16.382 8.46-31.595 18.983-43.234 35.36-11.77 16.565-16.489 34.328-18.593 52.484-1.919 16.558-1.918 36.423-1.916 58.589v142.188c0 37.059-0.234 49.261-2.394 58.949-5.053 22.663-15.807 40.751-34.584 57.052-8.176 7.099-20.423 14.228-55.595 34.028l-154.515 86.982c-23.59 13.279-43.647 24.569-59.346 35.474-16.664 11.575-31.123 24.488-41.859 42.278-10.817 17.924-15.321 36.595-17.383 56.496-1.916 18.493-1.915 40.67-1.914 66.324v38.096c0 0.897 0 1.792 0 2.683-0.002 32.537-0.004 61.059 3.282 83.996 3.579 24.97 11.723 48.969 32.226 68.204 20.147 18.902 44.676 26.092 70.055 29.292 23.93 3.019 53.87 3.018 88.893 3.015zM135.906 878.835c-17.521-2.21-23.093-5.843-26.017-8.587-2.568-2.41-5.959-6.653-8.148-21.934-2.392-16.684-2.486-39.481-2.486-75.504v-36.225c0-28.053 0.048-46.122 1.495-60.079 1.347-12.997 3.658-19.247 6.474-23.913 2.896-4.8 7.706-10.192 19.356-18.284 12.273-8.525 29.040-18.012 54.592-32.395l152.972-86.113c1.432-0.806 2.843-1.6 4.233-2.382 29.34-16.505 49.321-27.747 64.361-40.805 31.054-26.96 50.979-59.707 59.827-99.392 4.301-19.288 4.293-40.916 4.283-71.446-0.001-1.526-0.001-3.074-0.001-4.645v-140.179c0-24.796 0.060-40.047 1.391-51.531 1.203-10.382 3.098-13.871 4.558-15.919 1.591-2.245 4.741-5.616 15.162-11.004 11.155-5.758 26.521-11.815 50.79-21.307 50.465-19.724 84.411-32.894 110.13-39.006 25.133-5.963 33.415-2.867 37.7-0.19 3.567 2.229 9.082 6.766 12.673 29.539 3.786 24.017 3.904 57.896 3.904 109.419v140.179c0 1.57-0.001 3.119-0.001 4.645-0.011 30.53-0.017 52.158 4.283 71.447 8.849 39.687 28.773 72.433 59.823 99.392 15.045 13.058 35.029 24.299 64.363 40.804 1.395 0.782 2.804 1.577 4.238 2.383l152.97 86.112c25.553 14.383 42.315 23.869 54.595 32.395 11.643 8.092 16.455 13.484 19.353 18.284 2.812 4.665 5.128 10.915 6.474 23.913 1.442 13.956 1.488 32.026 1.488 60.079v36.225c0 36.023-0.095 58.821-2.481 75.504-2.189 15.281-5.577 19.523-8.152 21.934-2.923 2.744-8.492 6.378-26.017 8.587-18.408 2.322-43.324 2.396-81.503 2.396h-735.178c-38.179 0-63.092-0.074-81.503-2.396z" />
<glyph unicode="&#xe9ac;" glyph-name="bin" d="M128 640v-640c0-35.2 28.8-64 64-64h576c35.2 0 64 28.8 64 64v640h-704zM320 64h-64v448h64v-448zM448 64h-64v448h64v-448zM576 64h-64v448h64v-448zM704 64h-64v448h64v-448zM848 832h-208v80c0 26.4-21.6 48-48 48h-224c-26.4 0-48-21.6-48-48v-80h-208c-26.4 0-48-21.6-48-48v-80h832v80c0 26.4-21.6 48-48 48zM576 832h-192v63.198h192v-63.198z" />
<glyph unicode="&#xe9ad;" glyph-name="bin2" d="M192-64h640l64 704h-768zM640 832v128h-256v-128h-320v-192l64 64h768l64-64v192h-320zM576 832h-128v64h128v-64z" />
<glyph unicode="&#xea3a;" glyph-name="arrow-up" d="M877.254 557.254l-320 320c-24.992 24.994-65.514 24.994-90.508 0l-320-320c-24.994-24.994-24.994-65.516 0-90.51 24.994-24.996 65.516-24.996 90.51 0l210.744 210.746v-613.49c0-35.346 28.654-64 64-64s64 28.654 64 64v613.49l210.746-210.746c12.496-12.496 28.876-18.744 45.254-18.744s32.758 6.248 45.254 18.746c24.994 24.994 24.994 65.514 0 90.508z" />
<glyph unicode="&#xea3c;" glyph-name="arrow-right" d="M621.254 82.746l320 320c24.994 24.992 24.994 65.516 0 90.51l-320 320c-24.994 24.992-65.516 24.992-90.51 0-24.994-24.994-24.994-65.516 0-90.51l210.746-210.746h-613.49c-35.346 0-64-28.654-64-64s28.654-64 64-64h613.49l-210.746-210.746c-12.496-12.496-18.744-28.876-18.744-45.254s6.248-32.758 18.744-45.254c24.994-24.994 65.516-24.994 90.51 0z" />
<glyph unicode="&#xea3e;" glyph-name="arrow-down" d="M877.254 338.746l-320-320c-24.992-24.994-65.514-24.994-90.508 0l-320 320c-24.994 24.994-24.994 65.516 0 90.51 24.994 24.996 65.516 24.996 90.51 0l210.744-210.746v613.49c0 35.346 28.654 64 64 64s64-28.654 64-64v-613.49l210.746 210.746c12.496 12.496 28.876 18.744 45.254 18.744s32.758-6.248 45.254-18.746c24.994-24.994 24.994-65.514 0-90.508z" />
<glyph unicode="&#xea40;" glyph-name="arrow-left" d="M402.746 82.746l-320 320c-24.994 24.992-24.994 65.516 0 90.51l320 320c24.994 24.992 65.516 24.992 90.51 0 24.994-24.994 24.994-65.516 0-90.51l-210.746-210.746h613.49c35.346 0 64-28.654 64-64s-28.654-64-64-64h-613.49l210.746-210.746c12.496-12.496 18.744-28.876 18.744-45.254s-6.248-32.758-18.744-45.254c-24.994-24.994-65.516-24.994-90.51 0z" />
<glyph unicode="&#xea41;" glyph-name="circle-up" d="M0 448c0-282.77 229.23-512 512-512s512 229.23 512 512-229.23 512-512 512-512-229.23-512-512zM928 448c0-229.75-186.25-416-416-416s-416 186.25-416 416 186.25 416 416 416 416-186.25 416-416zM706.744 290.744l90.512 90.512-285.256 285.254-285.254-285.256 90.508-90.508 194.746 194.744z" />
<glyph unicode="&#xea42;" glyph-name="circle-right" d="M512 960c-282.77 0-512-229.23-512-512s229.23-512 512-512 512 229.23 512 512-229.23 512-512 512zM512 32c-229.75 0-416 186.25-416 416s186.25 416 416 416 416-186.25 416-416-186.25-416-416-416zM354.744 253.256l90.512-90.512 285.254 285.256-285.256 285.254-90.508-90.508 194.744-194.746z" />
<glyph unicode="&#xea43;" glyph-name="circle-down" d="M1024 448c0 282.77-229.23 512-512 512s-512-229.23-512-512 229.23-512 512-512 512 229.23 512 512zM96 448c0 229.75 186.25 416 416 416s416-186.25 416-416-186.25-416-416-416-416 186.25-416 416zM317.256 605.256l-90.512-90.512 285.256-285.254 285.254 285.256-90.508 90.508-194.746-194.744z" />
</font>
</defs>
</svg>
